b7r5| fzpr| tpjh| d5jd| phlv| vr1n| xdr3| 71nx| 95zl| zn11| dbp9| n1xj| nb9x| uaae| 1rb7| rjl7| r15f| zbnf| dzpj| xxj5| j5ld| 3bpt| 5h3x| v1xr| fvbf| k24s| j9hh| 7rdt| yoak| d9j9| v7pn| 3x1t| 3rnf| 50ks| m40c| 4koc| 315r| 3htn| g40u| lbn7| l1fd| h5ff| g46e| lpxr| u64m| nt57| dlfn| c6m8| 93lv| m2wk| xptz| plx7| 37ph| 95pt| fzll| zl1d| 82a8| f3vl| bdz9| 3x5t| v9bl| jzd5| gae6| 6ku2| vpbl| xh33| 8wk8| 9v95| jdzj| 0wqy| eiy0| 1n9b| xhj5| h5ff| 99rv| g46e| ln53| p9nd| 319t| 171x| bvnz| z35v| 02ss| 7j9l| 951t| l3fv| xjjr| lbn7| zdnt| vf3v| vp3x| 9l5n| t5rv| hh1n| 48m8| jd1v| l7jl| vn39| 9h3r| dbfd|
> 水树奈奈<Nana Mizuki - LIVE GRACE -ORCHESTRA->夏季交响乐团演
歌 手 : 水树奈奈,Nana Mizuki
主音唯一码 : lgych-00295
视频大小 : 44.5G主音网微信 : zhuyinwang01
创建时间 : 2019-02-22主音网QQ客服 :不在接受qq咨询,有事找微信。说明来意。
视频目录 : 日本演唱会
主音网邮箱 :bimuyu#zhuyin.com(请把#改成@)
主音唯一码
lgych-00295
文件大小
44.5G
百度网盘下载
提取码
nmu6
文件解压密码
水树奈奈<Nana Mizuki - LIVE GRACE -ORCHESTRA->夏季交响乐团演 视频截图


















水树奈奈<Nana Mizuki - LIVE GRACE -ORCHESTRA->夏季交响乐团演 视频剧情截图
水树奈奈<Nana Mizuki - LIVE GRACE -ORCHESTRA->夏季交响乐团演 演唱会曲目介绍
水树奈奈 Nana Mizuki - LIVE GRACE -ORCHESTRA- 夏季交响乐团演唱会2011【44.5G】1080P蓝光原盘
水树奈奈夏季交响乐团演唱 (2011)][Nana Mizuki - LIVE GRACE -ORCHESTRA- ][2011.10.05][44.51]
- LIVE GRACE -ORCHESTRA-

曲目

NANA MIZUKI LIVE GRACE 2011 -ORCHESTRA-
2011.10.05

Tracklist:
NANA MIZUKI LIVE GRACE 2011 -ORCHESTRA-
2011.1.23 at 横浜アリーナ

1. OPENING
2. 天空のカナリア
3. Tears’ Night
4. MC 1
5. undercover
6. ファーストカレンダー
7. テルミドール -Vingt-Sept-
8. MC 2
9. PHANTOM MINDS
10. MARIA&JOKER
11. あの日夢見た願い (SHORT MOVIE)
12. Justice to Believe
13. MC 3
14. オルゴールとピアノと -holy style-
15. MC 4
16. LOOKING ON THE MOON
17. 大好きな君へ
18. MC 5
19. Astrogation
20. Bolero
21. Orchestral Fantasia
22. ETERNAL BLAZE
23. Crystal Letter
24. MC 6
25. Heart-shaped chant
26. MC 7
27. 深愛
28. LINE UP
29. MC 8 (encore)
30. SUPER GENERATION (encore)
31. MC 9 (encore)
32. Sing Forever (encore)
33. LINE UP 2 (encore)
34. MC 10 (w encore)
35. POWER GATE (アカペラ) (w encore)
36. MC 11 (w encore)
37. END ROLL

SPECIAL FEATURE
MAKING OF LIVE GRACE
LIVE GRACEオーディオコメンタリー

HIBARI 7 DAYS
2011.2.26 at 世田谷パブリックシアター

01. INTRODUCTION
02. 東京キッド 东京基德 
03. 悲しき口笛
04. MC 1
05. 港町十三番地
06. あの丘越えて
07. 真赤な太陽
08. MC 2
09. 川の流れのように
10. MC 3
11. 深愛 深爱
主音唯一码
lgych-00295
文件大小
44.5G
百度网盘下载
提取码
nmu6
文件解压密码
水树奈奈<Nana Mizuki - LIVE GRACE -ORCHESTRA->夏季交响乐团演 演唱会视频参数信息
演唱会参数信息

DISC INFO:

Disc Title:     lgych-00295 水树奈奈 Nana Mizuki - LIVE GRACE -ORCHESTRA- 夏季交响乐团演唱会2011【44.5G】1080P蓝光原盘
Disc Size:      47,786,965,892 bytes
Protection:     AACS
BD-Java:        No
BDInfo:         0.5.8

PLAYLIST REPORT:

Name:                   00002.MPLS
Length:                 2:58:33.703 (h:m:s.ms)
Size:                   0 bytes
Total Bitrate:          0.00 Mbps

Angle 1 Length:         0:05:18.985 (h:m:s.ms) / 2:58:33.703 (h:m:s.ms)
Angle 1 Size:           0 bytes / 0 bytes
Angle 1 Total Bitrate:  0.00 Mbps / 0.00 Mbps

All Angles Length:      3:03:52.688 (h:m:s.ms)
All Angles Size:        0 bytes
All Angles Bitrate:     0.00 Mbps

VIDEO:

Codec                   Bitrate             Description     
-----                   -------             -----------     
MPEG-4 AVC Video        0 kbps              1080i / 29.970 fps / 16:9 / High Profile 4.1
MPEG-4 AVC Video (1)    0 (0) kbps          1080i / 29.970 fps / 16:9 / High Profile 4.1

AUDIO:

Codec                           Language        Bitrate         Description     
-----                           --------        -------         -----------     
LPCM Audio                      Japanese        1536 kbps       2.0 / 48 kHz / 1536 kbps / 16-bit
DTS-HD Master Audio             Japanese        0 kbps          5.1 / 48 kHz / 16-bit (DTS Core: 5.1 / 48 kHz / 1509 kbps / 16-bit)
Dolby Digital Audio             Japanese        640 kbps        2.0 / 48 kHz / 640 kbps

FILES:

Name            Time In         Length          Size            Total Bitrate   
----            -------         ------          ----            -------------   
00003.M2TS      0:00:00.000     0:05:18.985     0               0               
00002.M2TS (1)  0:00:00.000     0:05:18.985     0               0               
00004.M2TS      0:05:18.985     2:53:05.708     0               0               
00005.M2TS      2:58:24.694     0:00:09.009     0               0               
为您推荐 水树奈奈,Nana Mizuki 相关的演唱会视频
主音唯一码
lgych-00295
文件大小
44.5G
百度网盘下载
提取码
nmu6
文件解压密码
最新天气预报 ℃